#TITLE:SUMMER TIME;
#SUBTITLE:[Caribbean beats];
#ARTIST:SHINPEI;
#TITLETRANSLIT:;
#SUBTITLETRANSLIT:;
#ARTISTTRANSLIT:;
#CREDIT:;
#BANNER:SUMMER TIME.PNG;
#BACKGROUND:SUMMER TIME-BG.PNG;
#LYRICSPATH:;
#CDTITLE:GMO.PNG;
#MUSIC:10.Caribbean Beats - SUMMER TIME.mp3;
#OFFSET:-3.500;
#SAMPLESTART:15.430;
#SAMPLELENGTH:19.300;
#SELECTABLE:YES;
#BPMS:0.000=100.000;
#STOPS:;
#BGCHANGES:;
// cache tags:
#FIRSTBEAT:4.000;
#LASTBEAT:174.000;
#SONGFILENAME:Songs/Music V.I.P ^_^/Summer Time- GM/SUMMER TIME.sm;
#HASMUSIC:1;
#HASBANNER:1;
#MUSICLENGTH:116.329;
// end cache tags

//---------------dance-single - [Caribbean Beats]----------------
#NOTES:
     dance-single:
     [Caribbean Beats]:
     Hard:
     12:
     1.000,1.000,1.000,0.034,1.000,704.000,143.000,4.000,0.000,0.000:
0000
0000
0000
0000
,
1001
0000
0100
1100
0000
0011
0000
0101
0000
1010
0000
1100
0000
0000
0000
0000
,
1001
0000
0100
0101
0000
1010
0000
0011
0000
1100
0000
0101
0000
1100
0000
0000
,
1001
0000
0100
1100
0000
0011
0000
0101
0000
1010
0000
1100
0000
0000
0000
0000
,
0101
0000
0000
0000
0010
0000
0011
0000
0000
0000
1100
0000
0000
0000
0101
0000
0000
0000
0110
0000
0000
0000
1010
0000
0000
0000
1000
0000
1000
0000
1000
0010
,
0101
0000
0010
1010
0000
1000
1100
0000
1001
0000
0100
0101
0000
0010
0011
0000
,
1100
0000
0000
0000
0001
0000
1001
0000
0000
0000
0100
0000
0110
0000
0000
0000
0001
1000
0001
1000
0001
1000
0001
1000
0001
1000
0001
1000
0000
0000
0000
0000
,
1100
0000
0010
0011
0000
0100
0101
0000
1001
0000
0100
1100
0000
0010
0011
0000
,
0101
0000
0000
0000
0010
0000
1010
0000
0000
0000
1000
0000
1100
0000
0000
0000
0010
0001
0010
0001
0010
0001
0010
0001
0010
0001
0010
0001
0000
0000
0000
0000
,
1010
0000
0100
0110
0000
0001
0011
0000
0110
0000
1000
1100
0000
0010
0110
0000
,
0101
0000
0000
0000
0010
0000
1010
0000
0000
0000
1000
0000
1100
0000
0000
0000
0100
1000
0100
1000
0100
1000
0100
1000
0100
1000
0100
1000
0100
1000
0100
1000
,
0011
0000
0010
0110
0000
1000
1100
0000
0110
0000
0001
0101
0000
0100
0110
0000
,
1100
0000
0000
0000
0100
0000
0101
0000
0000
0000
0001
0000
1001
0000
0000
0000
1000
0001
1000
0001
1000
0001
1000
0001
1000
0001
1000
0001
1000
0001
1000
0001
,
0000
0000
1100
0000
0011
0001
0100
0010
1100
0000
1100
0010
0100
0001
0010
0100
,
0011
0000
1100
0010
1000
0010
0100
0001
0010
0100
1000
0001
0100
0010
1001
0000
,
0000
0000
1001
0000
0110
0010
1000
0100
0011
0000
0101
0010
1000
0100
1000
0010
,
0101
0010
1000
0001
1000
0100
0010
0001
0110
0000
1001
0000
1001
0000
0000
0000
,
1000
0100
1000
0100
1000
0100
1000
0100
0010
0001
0010
0001
0010
0001
0010
0001
0100
0001
0100
0001
0100
0001
0100
0001
0010
1000
0010
1000
0010
1000
0010
1000
,
0010
1000
0010
1000
0010
1000
0010
1000
0010
1000
0010
1000
0010
1000
0010
1000
1010
0000
0000
0000
0101
0000
0000
0000
0011
0000
0000
0000
1100
0000
0000
0000
,
0001
0010
0001
0010
0001
0010
0001
0010
0100
1000
0100
1000
0100
1000
0100
1000
0010
1000
0010
1000
0010
1000
0010
1000
0100
0001
0100
0001
0100
0001
0100
0001
,
0100
0001
0100
0001
0100
0001
0100
0001
0100
0001
0100
0001
0100
0001
0100
0001
0101
0000
0000
0000
1010
0000
0000
0000
0011
0000
0000
0000
1100
0000
0000
0000
,
0001
0100
0001
0100
0001
0100
0001
0100
0010
1000
0010
1000
0010
1000
0010
1000
0001
1000
0001
1000
0001
1000
0001
0010
0001
0010
0001
0010
0001
0010
0001
0010
,
0001
0010
0001
0010
0001
0010
0001
0010
0001
0010
0001
0010
0001
0010
0001
0010
0011
0000
0000
0000
0110
0000
0000
0000
1010
0000
0000
0000
0101
0000
0000
0000
,
0010
1000
0010
1000
0010
1000
0010
1000
0001
0100
0001
0100
0001
0100
0001
0100
0010
0100
0010
0100
0010
0100
0010
0100
0001
1000
0001
1000
0001
1000
0001
1000
,
0001
1000
0001
1000
0001
1000
0001
1000
0001
1000
0001
1000
0001
1000
0001
1000
1001
0000
0000
0000
1010
0000
0000
0000
0101
0000
0000
0000
1001
0000
0000
0000
,
1001
0000
0100
1000
0000
0100
0010
0000
0010
0001
0000
0100
0010
1000
0010
0100
,
0000
0000
0011
0000
0000
0000
0101
0000
0000
0000
1010
0000
0000
0000
1100
0000
0010
0000
0001
0000
0100
0000
0010
0000
1000
0100
1000
0100
1000
0000
0011
0000
,
0000
0100
0010
1000
0100
1000
0010
0100
0001
0100
0010
1000
0001
0000
0001
1000
,
0100
0000
0000
0000
0100
0000
1000
0000
0001
0000
0010
0000
0100
1000
0100
1000
0100
0000
0000
0000
0100
0001
0100
0001
0100
0000
0000
0000
0100
1000
0100
1000
,
0100
0000
1001
0000
0101
0010
0100
1100
0000
0101
0000
0011
0000
0101
0010
1000
,
0100
1000
0001
0100
0000
1000
0100
0000
0100
0001
0010
0100
0010
0001
0100
0000
,
1000
0010
1000
0010
1000
0010
1000
0010
0100
0001
0100
0001
0010
0001
0010
0001
1000
0010
1000
0010
1000
0010
1000
0010
0100
0001
0100
0001
0010
0001
0010
0001
,
1000
0010
1000
0010
1000
0010
1000
0010
0100
0001
0100
0001
0010
0001
0010
0001
1001
0000
0000
0000
0000
0000
0000
0000
2002
0000
0000
0000
0000
0000
3003
0000
,
0101
0000
0010
1010
0000
1000
1100
0000
1001
0000
0100
0101
0000
0010
0011
0000
,
1100
0000
0000
0000
0001
0000
1001
0000
0000
0000
0100
0000
0110
0000
0000
0000
0001
1000
0001
1000
0001
1000
0001
1000
0001
1000
0001
1000
0000
0000
0000
0000
,
1100
0000
0010
0011
0000
0100
0101
0000
1001
0000
0100
1100
0000
0010
0011
0000
,
0101
0000
0000
0000
0010
0000
1010
0000
0000
0000
1000
0000
1100
0000
0000
0000
0010
0001
0010
0001
0010
0001
0010
0001
0010
0001
0010
0001
0000
0000
0000
0000
,
1010
0000
0100
0110
0000
0001
0011
0000
0110
0000
1000
1100
0000
0010
0110
0000
,
0101
0000
0000
0000
0010
0000
1010
0000
0000
0000
1000
0000
1100
0000
0000
0000
0100
1000
0100
1000
0100
1000
0100
1000
0100
1000
0100
1000
0100
1000
0100
1000
,
0011
0000
0010
0110
0000
1000
1100
0000
0110
0000
0001
0101
0000
0100
0110
0000
,
1100
0000
0000
0000
0100
0000
0101
0000
0000
0000
0001
0000
1001
0000
0000
0000
1000
0001
1000
0001
1000
0001
1000
0001
1000
0001
1000
0001
1000
0001
1000
0001
,
1000
0100
1000
0100
1000
0100
1000
0100
1000
0100
1000
0100
1000
0100
1000
0100
0010
0001
0010
0001
0010
0001
0010
0001
0010
0001
0010
0001
0010
0001
0010
0001
,
0100
0001
0100
0001
0100
0001
0100
0001
0100
0001
0100
0001
0100
0001
0100
0001
2002
0000
0000
0000
0000
0000
0000
0000
0000
0000
0000
0000
0000
0000
0000
0000
,
0000
0000
3003
0000
;
